Loading...
Error
 

Скачать торрент (Score) Мортал Комбат / Mortal Kombat (by Benjamin Wallfisch) - 2021, [TR24] [OF] [FLAC, tracks, lossless]

 
Автор Сообщение

Myster_Ya

post 01-Май-21 07:10

Мортал Комбат / Mortal Kombat
pic

Формат записи/Источник записи: [TR24][OF]
Наличие водяных знаков: Нет
Год издания: 2021
Жанр: Score
Композитор: Benjamin Wallfisch
Издатель (лейбл): WaterTower Music
Продолжительность: 01:19:37
Наличие сканов в содержимом раздачи: Только обложка альбома
Контейнер: FLAC (*.flac)
Тип рипа: tracks
Разрядность: 24/44.1/48
Формат: PCM
Количество каналов: 2.0
Источник (релизер): qobuz.com
Треклист
01. Techno Syndrome 2021 (Mortal Kombat)
02. Hanzo Hasashi
03. Lord Raiden
04. Bi-Han
05. Shang Tsung
06. Cole Young
07. Birthmark
08. Sonya Blade
09. Kano v Reptile
10. Liu Kang
11. The Great Protector
12. Sub-Zero
13. Kung Lao
14. Origins
15. Kabal
16. Goro
17. Arcana
18. Jax Briggs
19. The Void
20. The Tournament
21. Sub-Zero v Cole Young
22. I Am Scorpion
23. We Fight as One
24. Get Over Here
Лог проверки качества

Код:

foobar2000 1.4.8 / Dynamic Range Meter 1.1.1
log date: 2021-04-17 12:52:04

--------------------------------------------------------------------------------
Analyzed: Benjamin Wallfisch / Mortal Kombat (Original Motion Picture Soundtrack)
--------------------------------------------------------------------------------

DR         Peak         RMS     Duration Track
--------------------------------------------------------------------------------
DR10      -0.20 dB   -15.51 dB      7:15 02-Hanzo Hasashi
DR9       -0.20 dB   -12.89 dB      2:24 03-Lord Raiden
DR9       -0.20 dB   -12.57 dB      2:42 04-Bi-Han
DR10      -0.41 dB   -15.04 dB      1:37 05-Shang Tsung
DR5       -0.20 dB    -8.11 dB      1:42 06-Cole Young
DR9       -0.20 dB   -14.37 dB      2:47 07-Birthmark
DR11      -0.20 dB   -16.04 dB      4:23 08-Sonya Blade
DR7       -0.20 dB   -11.83 dB      3:00 09-Kano v Reptile
DR10      -0.20 dB   -15.05 dB      5:59 10-Liu Kang
DR11      -0.78 dB   -17.00 dB      2:28 11-The Great Protector
DR11      -0.20 dB   -17.05 dB      3:01 12-Sub-Zero
DR12      -0.20 dB   -17.97 dB      3:13 13-Kung Lao
DR12      -0.36 dB   -18.23 dB      3:08 14-Origins
DR12      -1.19 dB   -18.47 dB      2:59 15-Kabal
DR12      -0.20 dB   -15.77 dB      2:57 16-Goro
DR10      -0.20 dB   -14.46 dB      3:58 17-Arcana
DR12      -0.20 dB   -17.46 dB      2:35 18-Jax Briggs
DR10      -0.20 dB   -14.56 dB      4:13 19-The Void
DR10      -0.20 dB   -12.82 dB      5:01 20-The Tournament
DR13      -0.20 dB   -15.71 dB      1:18 21-Sub-Zero v Cole Young
DR9       -0.20 dB   -11.13 dB      3:15 22-I Am Scorpion
DR7       -0.20 dB   -11.00 dB      2:49 23-We Fight as One
DR14      -0.20 dB   -18.53 dB      3:57 24-Get Over Here
--------------------------------------------------------------------------------

Number of tracks:  23
Official DR value: DR10
Samplerate:        44100 Hz
Channels:          2
Bits per sample:   24
Bitrate:           1432 kbps
Codec:             FLAC
================================================================================

--------------------------------------------------------------------------------
Statistics for: 01-Techno Syndrome 2021 (Mortal Kombat)
Number of samples: 8964508
Duration: 3:07
--------------------------------------------------------------------------------

                 Left              Right

Peak Value:     -1.00 dB   ---     -1.00 dB
Avg RMS:        -7.03 dB   ---     -7.11 dB
DR channel:      4.53 dB   ---      4.52 dB
--------------------------------------------------------------------------------

Official DR Value: DR5
Samplerate:        48000 Hz
Channels:          2
Bits per sample:   24
Bitrate:           1919 kbps
Codec:             FLAC
================================================================================



Benjamin Wallfisch - Mortal Kombat (2021) (24-44.1).torrent
Трекер: Зарегистрирован

magnet ссылка

 


Скачать .torrent

18 KB

Статус: проверено (by Snowden в 01-Май-21 07:26)
Зарегистрирован: 01-Май-21 07:10
Скачан: 12 раз
Размер: 866 MB | 
Поблагодарили:
Скачать (Score) Мортал Комбат / Mortal Kombat (by Benjamin Wallfisch) - 2021, [TR24] [OF] [FLAC, tracks, lossless] торрент
 


Похожие раздачи

Текущее время: 18-Май 02:19

Часовой пояс: GMT + 3



Вы не можете начинать темы
Вы не можете отвечать на сообщения
Вы не можете редактировать свои сообщения
Вы не можете удалять свои сообщения
Вы не можете голосовать в опросах
Вы не можете прикреплять файлы к сообщениям
Вы не можете скачивать файлы