Loading...
Error
 
Мини-чат
 

Скачать торрент (Jpop) THE SxPLAY - Best Of 3650 Days - 2020, [FLAC, tracks, lossless]

 
Автор Сообщение

Myster_Ya

post 28-Июн-20 23:47

pic
THE SxPLAY - Best Of 3650 Days

Год издания: 2020.04.08
Жанр: Jpop
Продолжительность: 01:12:13
Лейбл издания: FLME
Страна-выпуска диска: Japan
Формат записи/Источник записи: [TR24][OF]
Разрядность: 24/44
Формат: FLAC
Битрейт аудио: Lossless
Тип рипа: tracks
Источник: mora.jp
Наличие сканов в содержимом раздачи: нет
Треклист:
01. 君とこの空の下で (05:27)
02. キミに贈る歌 (04:25)
03. 君がいるから (05:52)
04. 僕はロボットごしの君に恋をする (04:51)
05. 『好き』という言葉 (04:58)
06. 素直になれなくて (04:42)
07. キミが残した世界で (03:48)
08. Eternal Love (04:34)
09. いつの日も (05:02)
10. Forever… (04:06)
11. For キミに贈る歌 (04:26)
12. Living Rock (05:52)
13. 未完成キャンバス (04:03)
14. はばたくキミへ (05:15)
15. MY NEVER ENDING STORY (04:52)
Лог проверки качества
foobar2000 1.5.4 / Замер динамического диапазона (DR) 1.1.1
Дата отчёта: 2020-06-28 23:11:20

--------------------------------------------------------------------------------
Анализ: THE SxPLAY(菅原紗由理) / BEST OF 3650 DAYS (1-7)
菅原紗由理 / BEST OF 3650 DAYS (8-15)
--------------------------------------------------------------------------------

DR Пики RMS Продолжительность трека
--------------------------------------------------------------------------------
DR6 -0.09 дБ -7.90 дБ 5:27 01-君とこの空の下で
DR6 -0.09 дБ -8.51 дБ 4:51 04-僕はロボットごしの君に恋をする
DR3 -0.09 дБ -6.17 дБ 3:48 07-キミが残した世界で
DR6 -0.10 дБ -8.33 дБ 4:26 11-For キミに贈る歌
DR4 -0.09 дБ -6.06 дБ 5:52 12-Living Rock
DR6 -0.11 дБ -7.83 дБ 4:03 13-未完成キャンバス
DR5 -0.09 дБ -7.44 дБ 4:52 15-MY NEVER ENDING STORY
DR7 -0.09 дБ -8.54 дБ 4:25 02-キミに贈る歌
DR5 -0.09 дБ -6.59 дБ 5:52 03-君がいるから
DR6 -0.09 дБ -7.90 дБ 4:58 05-『好き』という言葉
DR6 -0.09 дБ -7.55 дБ 4:42 06-素直になれなくて
DR6 -0.09 дБ -8.02 дБ 4:34 08-Eternal Love
DR6 -0.09 дБ -8.26 дБ 5:02 09-いつの日も
DR6 -0.09 дБ -8.31 дБ 4:06 10-Forever...
DR6 -0.09 дБ -8.21 дБ 5:15 14-はばたくキミへ
--------------------------------------------------------------------------------

Количество треков: 15
Реальные значения DR: DR6

Частота: 44100 Гц
Каналов: 2
Разрядность: 24
Битрейт: 2120 кбит/с
Кодек: FLAC
================================================================================
THE SxPLAY(菅原紗由理)初のベストアルバム「BEST OF 3650 DAYS」トレイラー映像(FULL)
THE SxPLAY - BEST OF 3650 DAYS (FLAC)(Hi-RES).torrent
Трекер: Зарегистрирован

magnet ссылка

 


Скачать .torrent

12 KB

Статус: проверено (by E IL o T IR i X в 29-Июн-20 02:10)
Зарегистрирован: 28-Июн-20 23:47
Скачан: 3 раза
Размер: 1.08 GB | 
Поблагодарили:
Скачать (Jpop) THE SxPLAY - Best Of 3650 Days - 2020, [FLAC, tracks, lossless] торрент
 


Похожие раздачи

Текущее время: 10-Авг 08:12

Часовой пояс: GMT + 3



Вы не можете начинать темы
Вы не можете отвечать на сообщения
Вы не можете редактировать свои сообщения
Вы не можете удалять свои сообщения
Вы не можете голосовать в опросах
Вы не можете прикреплять файлы к сообщениям
Вы не можете скачивать файлы