Loading...
Error
 
Мини-чат
 

Скачать торрент V-Ray. Материалы. Видеокурс [Сергей Чурсинов] (2014, 3D-Графика, PCRec) R.G. Мастер-Класс

 
Автор Сообщение

Music Listener

post 03-Май-15 16:42

V-Ray. Материалы.


pic
  • Год выпуска: 2014
  • Страна: Россия
  • Тематика: 3D-Графика
  • Тип материала: Обучающее видео
  • Продолжительность: Более 7 часов
  • Автор: Сергей Чурсинов
  • Язык: Русский
    Описание:
    Этот курс состоит из трех DVD дисков. Изучение этого курса позволит создать любой материал, который только может понадобится в интерьерном моделировании, да и не только в интерьерном. От самого простого до самого сложного материала, все станет вам под силу после изучения этого курса.

    Содержание:
    Диск №1

    Модуль 1 Введение. Теоретические основы создания материалов. Основные материалы: VrayMtl, Vray2SidedMtl, VrayBlendMtl. Принципы работы с текстурами в программе Photoshop.

    Модуль 2 Материал пластик. Пластик черный глянцевый. Пластик черный матовый. Пластик цветной матовый и глянцевый. Полупрозрачный пластик. Различные варианты полупрозрачного пластика. Использование текстур для придания реалистичности материалу.

    Модуль 3 Материал Стекло. Настройки, определяющие материал Стекло. Стекло обычное. Стекло высококачественное. Стекло цветное. Стекло матовое. Различные варианта стекла. Использование текстур при создании материала Стекло.

    Модуль 4 Материал Дерево. Создание и подготовка текстур в программе Photoshop. Карта VrayDirt. Настройка и использование. Состаривание и загрязнение материала Дерево с помощью карты VrayDirt. Глянцевые и матовые деревянные поверхности.

    Модуль 5 Материал Паркет. Использование программ 3ds MAX и Phoroshop для получения рисунка паркета. Создание по рисунку текстур паркета для различных каналов в программе Photoshop.

    Модуль 6 Материал Краска. Глянцевая и матовая крашенная поверхность. Патина, состаривание поверхности с использование процедурной карты VrayDirt.

    Модуль 7 Металлы. Принципы создания различных металлов. Полированные и неполированные металлы. Использование текстур для придания реалистичности материалам. Алюминий. Медь. Латунь. Нержавеющая сталь. Серебро. Золото. Железо. Ржавчина, загрязнения на поверхности металлов. Анизотропия.

    Диск №2

    Модуль 8 Ткани. Принципы создания различным тканей в V-Ray. Применение текстур для придания реалистичности тканям. Работа с текстурами для тканей в программе Зрщещырщзю Виды материалов для создания тканей. Различные варианты тканей. Полупрозрачные ткани. Скатерти, полотенца, покрывала, занавески, шторы.

    Модуль 9 Камни. Создание различных вариантов плитки для напольного покрытия. Использование программы Photoshop. Мрамор. Состаривание мрамора. Использование материала типа VRayFastSSS2 для создания реалистичных материалов мрамор, фарфор, фаянс. Материал Гранит и другие вариантов, используемых в интерьере.

    Модуль 10 Материал Кожа. Парамерты, определяющие материал Кожа. Использование текстур. Настройка текстур для материала кожа в программе Photoshop. Различные варианты материала Кожа.

    Диск №3

    Модуль 11 Работа с процедурными картами Tiles, Gradient, Gradient Ramp, Falloff, Noise, Mix.

    Модуль 12 Создание материалов белого и черного жемчуга.

    Модуль 13 Использование типа материала VrayCarPaintMtl для создание краски хамелеон. Применение V-Ray RT.

    Модуль 14 Анизотропия. Работа с параметром Anisotropy при создании металлов.

    Модуль 15 Многослойное стекло. Методы и способы создания многослойного стекла. Использование текстур для создания треснутого стекла

    Модуль 16 Использование параметра Anisotropy и материала типа VrayBlendMtl для создания материала поверхности DVD (CD) диска.

    Модуль 17 Работа с программой CrazyBump для быстрого создания текстур для каналов Diffuse, Reflection, Bump, Displace и др. Создание материала покрытия земли, гальки, снега.

    Модуль 18 Грязное стекло. Запотевшее стекло. Меттоды и способы создания следов на стекле, мокрых, грязных окон.

    Модуль 19 Вода. Методы и способы создания реалистичной водной поверхности.

    Модуль 20 Материал персик. Использование различных методов, процедурных карт для создания сложного многослойного материала на примере персика.


  • Качество: PCRec
  • Формат: MP4
  • Видео кодек: AVC
  • Аудио кодек: AAC
  • Видео: avc1, 1000x750, 699 kbps, 5 fps
  • Аудио: AAC, 44.1 KHz, 2 ch stereo, 126 Kbps



MediaInfo

Код:

Общее
Полное имя                               : D:\Мастер-Класс\V-Ray. Материалы (2014)\Диск 1\AutoPlay\Docs\video\firstMaterials\firstMaterials.mp4
Формат                                   : MPEG-4
Профиль формата                          : Base Media / Version 2
Идентификатор кодека                     : mp42
Размер файла                             : 193 Мбайт
Продолжительность                        : 32 м.
Общий поток                              : 826 Кбит/сек
Дата кодирования                         : UTC 2013-04-16 23:34:13
Дата пометки                             : UTC 2013-04-16 23:34:13

Видео
Идентификатор                            : 1
Формат                                   : AVC
Формат/Информация                        : Advanced Video Codec
Профиль формата                          : [email protected]
Параметр CABAC формата                   : Да
Параметр ReFrames формата                : 4 кадра
Параметр GOP формата                     : M=1, N=25
Идентификатор кодека                     : avc1
Идентификатор кодека/Информация          : Advanced Video Coding
Продолжительность                        : 32 м.
Продолжительность оригинала              : 32 м.
Битрейт                                  : 699 Кбит/сек
Ширина                                   : 1000 пикселей
Высота                                   : 750 пикселей
Соотношение сторон                       : 4:3
Режим частоты кадров                     : Постоянный
Частота кадров                           : 5,000 кадров/сек
Цветовое пространство                    : YUV
Субдискретизация насыщенности            : 4:2:0
Битовая глубина                          : 8 бит
Тип развёртки                            : Прогрессивная
Бит/(Пиксели*Кадры)                      : 0.186
Размер потока                            : 163 Мбайт (85%)
Размер потока оригинала                  : 163 Мбайт (85%)
Язык                                     : English
Дата кодирования                         : UTC 2013-04-16 23:34:13
Дата пометки                             : UTC 2013-04-16 23:34:13
Цветовой диапазон                        : Limited
Основные цвета                           : BT.709
Характеристики трансфера                 : BT.709
Коэффициенты матрицы                     : BT.709
mdhd_Duration                            : 1961815

Аудио
Идентификатор                            : 2
Формат                                   : AAC
Формат/Информация                        : Advanced Audio Codec
Профиль формата                          : LC
Идентификатор кодека                     : 40
Продолжительность                        : 32 м.
Продолжительность оригинала              : 32 м.
Вид битрейта                             : Постоянный
Битрейт                                  : 126 Кбит/сек
Каналы                                   : 2 канала
Расположение каналов                     : Front: L R
Частота                                  : 44,1 КГц
Метод сжатия                             : С потерями
Размер потока                            : 29,4 Мбайт (15%)
Размер потока оригинала                  : 29,4 Мбайт (15%)
Язык                                     : English
Дата кодирования                         : UTC 2013-04-16 23:34:13
Дата пометки                             : UTC 2013-04-16 23:34:13
mdhd_Duration                            : 1960318

Скриншоты
     

pic
[rustorka.com]V-Ray. Материалы (2014).torrent
 СЕРЕБРЯНАЯ РАЗДАЧА! СКАЧАННОЕ ЗАСЧИТЫВАЕТСЯ ТОЛЬКО НАПОЛОВИНУ! 
Вечный
Трекер: Зарегистрирован

magnet ссылка

 


Скачать .torrent

112 KB

Статус: проверено (by Арт33 в 03-Май-15 16:57)
Зарегистрирован: 03-Май-15 16:42
Скачан: 110 раз
Размер: 10.53 GB | 
Поблагодарили:
Скачать V-Ray. Материалы. Видеокурс [Сергей Чурсинов] (2014, 3D-Графика, PCRec) R.G. Мастер-Класс торрент
 


Похожие раздачи

LNA

post 03-Май-15 17:24 (спустя 41 минута)

(2014, Вёрстка, программирование, PCRec)
А при чем здесь программирование и тем более вёрстка?

Арт33

post 03-Май-15 17:41 (спустя 17 минут)

LNA
Небольшая опечатка.

my_2nd_me

post 28-Май-20 17:19 (спустя 5 лет)

Встаньте на раздачу, пжлст

Текущее время: 11-Авг 15:38

Часовой пояс: GMT + 3



Вы не можете начинать темы
Вы не можете отвечать на сообщения
Вы не можете редактировать свои сообщения
Вы не можете удалять свои сообщения
Вы не можете голосовать в опросах
Вы не можете прикреплять файлы к сообщениям
Вы не можете скачивать файлы