Loading...
Error
 
Мини-чат
 

Скачать торрент Мой сосед Тоторо / My Neighbor Totoro / Tonari no Totoro( Миядзаки Хаяо) [1988, приключения, комедия, сказка, драма, BDRip]от HQCLUB

 
Автор Сообщение

Dj HaLf

post 22-Мар-14 12:44

pic
Мой сосед Тоторо / My Neighbor Totoro / Tonari no Totoro

Год выпуска: 1988
Страна: Япония
Жанр:приключения, комедия, сказка, драма
Продолжительность:01:26:25
Перевод:Профессиональный (многоголосый, закадровый) |RUSCICO| + Оригинальная звуковая дорожка (японская)
Роли озвучивали:Тошиюки Амагаса, Пол Батчер, Пэт Кэрролл, Шерил Чейз, Шигеру Чиба, Лара Коуди, Натали Кор, Тим Дейли, Дакота Фаннинг, Эль Фаннинг
Субтитры: русские (полные, RISCICO), английские (внешние, *.srt)
Студия: Studio Ghibli

Режиссёр:Миядзаки Хаяо
pic
Япония, пятидесятые годы прошлого века. Переехав в деревню, две маленькие сестры Сацуки (старшая) и Мэй (младшая) глубоко внутри дерева обнаружили необыкновенный, чудесный мир, населённый Тоторо, очаровательными пушистыми созданиями, с которыми у девочек сразу же завязалась дружба. Одни из них большие, другие совсем крохотные, но у всех у них огромное, доброе сердце и магические способности совершать необыкновенные вещи, наподобие полётов над горами или взращивания огромного дерева за одну ночь! Но увидеть этих существ могут лишь дети, которые им приглянутся... Подружившись с сёстрами, Тоторо не только устраивают им воздушную экскурсию по своим владениям, но и помогают Мэй повидаться с лежащей в больнице мамой.
Качество:BDRip(Источник: TolstiyMob / BDRemux / 1080p)
Формат:AVI
Видео кодек:XviD
Аудио кодек:AC3
Видео:704x384(1.83:1), 23.976 fps, XviD build 65 ~2010 Кбит/с avg, 0.31 bit/pixel
Аудио:AC3 Dolby Digital, 2/0 (L,R) ch, ~192 Кбит/c,48 КГц
MediaInfo
Общее
Полное имя : C:\ Загрузки\Totoro\Moj.sosed.Totoro.1988.DUAL.BDRip.XviD.AC3.-HQCLUB.avi
Формат : AVI
Формат/Информация : Audio Video Interleave
Размер файла : 1,45 Гбайт
Продолжительность : 1 ч. 26 м.
Общий поток : 2409 Кбит/сек
Название фильма : Мой сосед Тоторо / My Neighbor Totoro / Tonari no Totoro (1988) BDRip
Режиссёр : Deep Fusion
Жанр : приключения, комедия
Программа кодирования : VirtualDubMod 1.5.10.2 (build 2540/release)
Правообладатель : hqclub.net
Примечание : 06.01.2013

Видео
Идентификатор : 0
Формат : MPEG-4 Visual
Профиль формата : Advanced [email protected]
Параметр BVOP формата : 1
Параметр QPel формата : Нет
Параметр GMC формата : Без точки перехода
Параметр матрицы формата : Выборочная
Идентификатор кодека : XVID
Идентификатор кодека/Подсказка : XviD
Продолжительность : 1 ч. 26 м.
Битрейт : 2011 Кбит/сек
Ширина : 704 пикселя
Высота : 384 пикселя
Соотношение сторон : 1,85:1
Частота кадров : 23,976 кадра/сек
Цветовое пространство : YUV
Субдискретизация насыщенности : 4:2:0
Битовая глубина : 8 бит
Тип развёртки : Прогрессивная
Метод сжатия : С потерями
Бит/(Пиксели*Кадры) : 0.310
Размер потока : 1,21 Гбайт (83%)
Библиотека кодирования : XviD 65

Аудио #1
Идентификатор : 1
Формат : AC-3
Формат/Информация : Audio Coding 3
Расширение режима : CM (complete main)
Параметр Endianness формата : Big
Идентификатор кодека : 2000
Продолжительность : 1 ч. 26 м.
Вид битрейта : Постоянный
Битрейт : 192 Кбит/сек
Каналы : 2 канала
Расположение каналов : Front: L R
Частота : 48,0 КГц
Битовая глубина : 16 бит
Метод сжатия : С потерями
Размер потока : 119 Мбайт (8%)
Выравнивание : Разделение по промежуткам
Продолжительность промежутка : 42 мс. (1,00 видеокадр)
Время предзагрузки промежутка : 500 мс.

Аудио #2
Идентификатор : 2
Формат : AC-3
Формат/Информация : Audio Coding 3
Расширение режима : CM (complete main)
Параметр Endianness формата : Big
Идентификатор кодека : 2000
Продолжительность : 1 ч. 26 м.
Вид битрейта : Постоянный
Битрейт : 192 Кбит/сек
Каналы : 2 канала
Расположение каналов : Front: L R
Частота : 48,0 КГц
Битовая глубина : 16 бит
Метод сжатия : С потерями
Размер потока : 119 Мбайт (8%)
Выравнивание : Разделение по промежуткам
Продолжительность промежутка : 42 мс. (1,00 видеокадр)
Время предзагрузки промежутка : 500 мс.

Скриншоты
Totoro.torrent
Трекер: Зарегистрирован

magnet ссылка

 


Скачать .torrent

15 KB

Статус: проверено (by Кэрри Гуд в 22-Мар-14 14:50)
Зарегистрирован: 22-Мар-14 12:44
Скачан: 63 раза
Размер: 1.45 GB | 
Поблагодарили:
Скачать Мой сосед Тоторо / My Neighbor Totoro / Tonari no Totoro( Миядзаки Хаяо) [1988, приключения, комедия, сказка, драма, BDRip]от HQCLUB торрент
 


Похожие раздачи

anar333wade

post 23-Июн-20 05:19 (спустя 6 лет 3 месяца)

Кто-нибудь , помогите скачать!!!!

Текущее время: 06-Авг 09:29

Часовой пояс: GMT + 3



Вы не можете начинать темы
Вы не можете отвечать на сообщения
Вы не можете редактировать свои сообщения
Вы не можете удалять свои сообщения
Вы не можете голосовать в опросах
Вы не можете прикреплять файлы к сообщениям
Вы не можете скачивать файлы